Jump to content
LaunchBox Community Forums
ManGrissle

SOme Playstation 1 games will not work in big box

Recommended Posts

12 minutes ago, Shinryu said:

Dont bother converting games with multiple track bin files like that. psx2psp can only merge and convert up to 5 bin files at a time and besides that, Track1.bin is the main game itself while the other bin files are just the game's music files. Either download a pre-made pbp of these games or keep them extracted in a folder like that and import the cue file only. Also rename and add (Track 1) to the last file.

Hmm, maybe that should of been explained upfront? 

Also CHD is probably the recommended format these days anyway, but we are not touching on that in this thread.

Share this post


Link to post
Share on other sites
2 minutes ago, neil9000 said:

Hmm, maybe that should of been explained upfront? 

Also CHD is probably the recommended format these days anyway, but we are not touching on that in this thread.

I did mention it earlier in the thread but I guess I got a nasty habit of not wording myself properly. My bad.

Share this post


Link to post
Share on other sites

Anyways...I just downloaded 2Xtreme and extracted and tested and its working fine. The 1st pic is what all your files should be named as and the second pic is what the cue file should say inside it. You can copy and paste this into the cue file to make things quicker:

 

FILE "2Xtreme (USA) (Track 1).bin" BINARY
  TRACK 01 MODE2/2352
    INDEX 01 00:00:00
FILE "2Xtreme (USA) (Track 2).bin" BINARY
  TRACK 02 AUDIO
    INDEX 00 00:00:00
    INDEX 01 00:02:00
FILE "2Xtreme (USA) (Track 3).bin" BINARY
  TRACK 03 AUDIO
    INDEX 01 00:00:00
FILE "2Xtreme (USA) (Track 4).bin" BINARY
  TRACK 04 AUDIO
    INDEX 01 00:00:00
FILE "2Xtreme (USA) (Track 5).bin" BINARY
  TRACK 05 AUDIO
    INDEX 01 00:00:00
FILE "2Xtreme (USA) (Track 6).bin" BINARY
  TRACK 06 AUDIO
    INDEX 01 00:00:00
FILE "2Xtreme (USA) (Track 7).bin" BINARY
  TRACK 07 AUDIO
    INDEX 01 00:00:00
FILE "2Xtreme (USA) (Track 8).bin" BINARY
  TRACK 08 AUDIO
    INDEX 01 00:00:00
 

When you import the cue file into LB it SHOULD run perfectly now.

Untitled.png

Untitled2.png

Edited by Shinryu

Share this post


Link to post
Share on other sites
2 hours ago, Shinryu said:

Rename the last file to 2Xtreme (USA) (Track 1).bin and open the cue file with wordpad and check to see if all the bin file names are correct in the cue file.

I will try it just because you posted it....thanks

Share this post


Link to post
Share on other sites

Thanks for everyones help...I feel super dumb....user error was the culprit....when I would scan was using LB....the scan would some times pick a bin file track 1 for the cue file....it does work now....all I have to do now is right click on the game thats not working and change the location of the rom to the correct cue file for each game....but now that I learned you can convert the games to a smaller single file....I just might do that....thanks again....what a great forum

Share this post


Link to post
Share on other sites
1 minute ago, ManGrissle said:

Thanks for everyones help...I feel super dumb....user error was the culprit....when I would scan was using LB....the scan would some times pick a bin file track 1 for the cue file....it does work now....all I have to do now is right click on the game thats not working and change the location of the rom to the correct cue file for each game....but now that I learned you can convert the games to a smaller single file....I just might do that....thanks again....what a great forum

No problem.

Share this post


Link to post
Share on other sites

Join the conversation

You can post now and register later. If you have an account, sign in now to post with your account.

Guest
Reply to this topic...

×   Pasted as rich text.   Paste as plain text instead

  Only 75 emoji are allowed.

×   Your link has been automatically embedded.   Display as a link instead

×   Your previous content has been restored.   Clear editor

×   You cannot paste images directly. Upload or insert images from URL.


×
×
  • Create New...